#TITLE:Bing Bing Bing;
#SUBTITLE:Expi3nze;
#ARTIST:Ft Island;
#TITLETRANSLIT:;
#SUBTITLETRANSLIT:;
#ARTISTTRANSLIT:;
#CREDIT:;
#BANNER:bn.png;
#BACKGROUND:bg.png;
#LYRICSPATH:;
#CDTITLE:cdtitle.png;
#MUSIC:Bing Bing Bing.mp3;
#OFFSET:-0.236;
#SAMPLESTART:61.815;
#SAMPLELENGTH:24.632;
#SELECTABLE:YES;
#BPMS:0.000=190.004,2.000=189.991,3.000=190.004,5.000=189.991,6.000=190.004,8.000=189.991,9.000=190.004,11.000=189.991,12.000=190.004,14.000=189.991,15.000=190.004,17.000=189.991,18.000=190.004,21.000=189.991,22.000=190.004,24.000=189.991,25.000=190.004,27.000=189.991,28.000=190.004,30.000=189.991,31.000=190.004,33.000=189.991,34.000=190.004,36.000=189.991,37.000=190.004,40.000=189.991,41.000=190.004,43.000=189.991,44.000=190.004,46.000=189.991,47.000=190.004,49.000=189.991,50.000=190.004,52.000=189.991,53.000=190.004,56.000=189.991,57.000=190.004,59.000=189.991,60.000=190.004,62.000=189.991,63.000=190.004,65.000=189.991,66.000=190.004,68.000=189.991,69.000=190.004,71.000=189.991,72.000=190.004,74.000=189.991,75.000=190.004,78.000=189.991,79.000=190.004,81.000=189.991,82.000=190.004,84.000=189.991,85.000=190.004,87.000=189.991,88.000=190.004,90.000=189.991,91.000=190.004,93.000=189.991,94.000=190.004,97.000=189.991,98.000=190.004,100.000=189.991,101.000=190.004,103.000=189.991,104.000=190.004,106.000=189.991,107.000=190.004,109.000=189.991,110.000=190.004,113.000=189.991,114.000=190.004,116.000=189.991,117.000=190.004,119.000=189.991,120.000=190.004,122.000=189.991,123.000=190.004,125.000=189.991,126.000=190.004,128.000=189.991,129.000=190.004,132.000=189.991,133.000=190.004,135.000=189.991,136.000=190.004,138.000=189.991,139.000=190.004,141.000=189.991,142.000=190.004,144.000=189.991,145.000=190.004,147.000=189.991,148.000=190.004,150.000=189.991,151.000=190.004,154.000=189.991,155.000=190.004,157.000=189.991,158.000=190.004,160.000=189.991,161.000=190.004,163.000=189.991,164.000=190.004,166.000=189.991,167.000=190.004,169.000=189.991,170.000=190.004,173.000=189.991,174.000=190.004,176.000=189.991,177.000=190.004,179.000=189.991,180.000=190.004,182.000=189.991,183.000=190.004,185.000=189.991,186.000=190.004,188.000=189.991,189.000=190.004,192.000=189.991,193.000=190.004,195.000=189.991,196.000=190.004,198.000=189.991,199.000=190.004,201.000=189.991,202.000=190.004,204.000=189.991,205.000=190.004,207.000=189.991,208.000=190.004,211.000=189.991,212.000=190.004,214.000=189.991,215.000=190.004,217.000=189.991,218.000=190.004,220.000=189.991,221.000=190.004,223.000=189.991,224.000=190.004,227.000=189.991,228.000=190.004,230.000=189.991,231.000=190.004,233.000=189.991,234.000=190.004,236.000=189.991,237.000=190.004,239.000=189.991,240.000=190.004,242.000=189.991,243.000=190.004,246.000=189.991,247.000=190.004,249.000=189.991,250.000=190.004,252.000=189.991,253.000=190.004,255.000=189.991,256.000=190.004,258.000=189.991,259.000=190.004,261.000=189.991,262.000=190.004,265.000=189.991,266.000=190.004,268.000=189.991,269.000=190.004,271.000=189.991,272.000=190.004,274.000=189.991,275.000=190.004,277.000=189.991,278.000=190.004,280.000=189.991,281.000=190.004,284.000=189.991,285.000=190.004,287.000=189.991,288.000=190.004,290.000=189.991,291.000=190.004,293.000=189.991,294.000=190.004,296.000=189.991,297.000=190.004,299.000=189.991,300.000=190.004,302.000=189.991,303.000=190.004,305.000=189.991,306.000=190.004,309.000=189.991,310.000=190.004,312.000=189.991,313.000=190.004,315.000=189.991,316.000=190.004,318.000=189.991,319.000=190.004,321.000=189.991,322.000=190.004,324.000=189.991,325.000=190.004,328.000=189.991,329.000=190.004,331.000=189.991,332.000=190.004,334.000=189.991,335.000=190.004,337.000=189.991,338.000=190.004,340.000=189.991,341.000=190.004,343.000=189.991,344.000=190.004,347.000=189.991,348.000=190.004,350.000=189.991,351.000=190.004,353.000=189.991,354.000=190.004,356.000=189.991,357.000=190.004,359.000=189.991,360.000=190.004,363.000=189.991,364.000=190.004,366.000=189.991,367.000=190.004,369.000=189.991,370.000=190.004,372.000=189.991,373.000=190.004,375.000=189.991,376.000=190.004,378.000=189.991,379.000=190.004,382.000=189.991,383.000=190.004,385.000=189.991,386.000=190.004,388.000=189.991,389.000=190.004,391.000=189.991,392.000=190.004,394.000=189.991,395.000=190.004,397.000=189.991,398.000=190.004,401.000=189.991,402.000=190.004,404.000=189.991,405.000=190.004,407.000=189.991,408.000=190.004,410.000=189.991,411.000=190.004,413.000=189.991,414.000=190.004,416.000=189.991,417.000=190.004,420.000=189.991,421.000=190.004,423.000=189.991,424.000=190.004,426.000=189.991,427.000=190.004,429.000=189.991,430.000=190.004,432.000=189.991,433.000=190.004;
#STOPS:;
#BGCHANGES:;
// cache tags:
#FIRSTBEAT:5.000;
#LASTBEAT:428.000;
#SONGFILENAME:Songs/SDO pack 2/Bing Bing Bing(Ft Island)/Bing Bing Bing.sm;
#HASMUSIC:1;
#HASBANNER:1;
#MUSICLENGTH:137.543;
// end cache tags

//---------------dance-single - ----------------
#NOTES:
     dance-single:
     :
     Hard:
     17:
     1.000,1.000,1.000,0.167,0.185,661.000,329.000,23.000,0.000,27.000:
0000
0000
0000
0000
,
0000
0000
1000
0010
0001
0100
0010
0010
,
0100
1000
1000
0001
0001
0100
0010
0010
,
0100
1000
0100
0001
0001
0010
0001
0001
,
0100
0000
1000
0000
0001
0001
0100
0000
0010
0010
0100
0100
0001
0001
1000
0000
,
0010
0010
0100
0100
1000
0000
0000
0000
0011
0000
1000
0000
0100
0000
1000
0000
,
0011
0000
1000
0000
0011
1000
0100
1000
,
0011
0000
1100
0000
1100
0011
1100
0011
,
1001
0110
0011
0000
0011
1100
0011
1100
,
1100
0011
1001
0000
1001
0110
1001
1100
,
0011
1001
1100
0000
1100
1001
1100
0011
,
1001
0110
0011
0000
0011
1100
0011
1100
,
1100
0011
1100
0000
1100
0011
1100
0011
,
0011
1100
0012
0000
1100
0010
0100
0010
,
1100
0000
2103
0000
0011
0100
0010
0100
,
3011
0000
1001
0000
1001
0000
1100
0011
,
0000
0011
0000
0000
1001
0000
0000
0000
,
1001
0000
0011
0000
0011
0000
0011
1100
,
0000
1001
0000
1001
,
0001
0000
1100
0001
0010
0001
1100
0000
,
0001
0000
0000
0000
1100
0000
0001
0000
0010
0000
1000
1000
0010
0100
0010
0100
,
0110
0000
0110
0000
1100
0011
0000
1001
,
1000
0000
1001
0000
0100
0010
1000
0001
,
1000
0000
0011
1000
0100
1000
0011
0000
,
1000
1000
0011
1000
0100
1000
0011
0000
,
1001
0000
0011
0000
0011
0000
0011
1100
,
0000
1100
0001
0000
1001
0000
0010
1000
,
0001
1001
0000
1001
0011
1100
1001
1001
,
0000
1001
1000
0000
0011
1000
0100
1000
,
0010
0010
0110
0000
0110
0000
1100
0011
,
0000
0011
0000
0000
0011
0000
1001
0110
,
0000
0110
0000
0110
1001
1001
0011
1100
,
0000
1100
0001
0000
1100
0001
0010
0001
,
0011
0000
1100
0000
1100
0000
0011
1001
,
0000
0000
1001
0000
0000
0100
0010
0110
,
0110
0000
0110
0000
1001
0000
1001
0110
,
0000
0000
0000
0000
0110
1000
0000
0000
0010
0000
0000
0000
0001
0000
0001
0000
,
1001
0000
1001
0011
1100
1100
0011
0000
,
0011
1000
0011
1000
0100
1000
0011
1000
,
1001
0000
1001
0000
0010
0010
0100
0010
,
0000
0110
0000
1000
1001
0000
0011
1100
,
1000
1001
0000
1001
0011
1100
1001
0110
,
0000
0110
0001
0000
1100
0001
0010
0100
,
0100
0100
0110
0000
0110
0000
1001
0110
,
0000
0110
0000
0000
0110
0000
1100
1001
,
0000
1001
0000
1001
0011
1100
1100
1001
,
0000
1001
1000
1000
0011
1000
0100
1000
,
0011
0001
1100
0000
1100
0000
0011
1100
,
1001
0000
1001
0000
0000
0000
0011
1000
,
0011
1000
1001
0000
1001
0000
1001
0000
,
1001
0110
0000
0000
0110
0000
0110
0000
,
0110
1001
0000
1001
0011
1100
1100
0011
,
0000
0011
1000
0000
0011
1000
1001
0000
,
1001
1001
1001
0011
,
1100
1001
0000
0000
1001
0000
0011
0000
,
1100
1001
0000
0000
1001
0000
1010
0101
,
0000
0000
0110
0000
1000
0000
0000
0000
0011
0000
1000
0000
0100
0000
0010
0010
,
0100
0010
0100
0010
0110
0000
0000
0000
0110
0000
0000
0000
1001
0000
0110
0000
,
0000
0000
0110
1000
0000
0000
0000
0000
0011
0000
1000
0000
0100
0000
1000
0000
,
0011
0000
1100
0000
1100
0000
1001
0110
,
0000
0110
0001
0000
1100
0001
0010
0001
,
1100
0000
0011
0000
1001
0000
1010
0101
,
0000
0000
0110
0000
1000
0000
0010
0010
0100
0000
0010
0010
0100
0010
0100
0010
,
0100
0010
0100
0010
2002
0000
0000
0000
0000
0000
0000
0000
0000
0000
0000
0000
,
0000
0000
3100
0100
1010
1000
0100
0100
,
1100
0000
1100
0000
1100
1000
0100
0013
,
1100
1000
0110
0000
1200
0000
0000
0000
,
1301
0010
0011
0000
2100
0001
0010
0001
,
0011
3001
0110
0000
0021
1000
0100
1000
,
1100
0000
1030
0000
0000
0000
0100
0000
1000
0000
0100
0000
0010
0100
0001
0000
,
0100
1000
0010
0000
0100
1000
0001
0000
0100
1000
0001
0010
0001
0100
0010
0000
,
2000
0000
0000
3000
0120
0000
0000
0000
1130
0000
0001
0000
1000
0000
1000
0000
,
0011
0100
0010
0010
1100
1000
0001
0001
,
1100
0000
0010
0000
2001
0000
0000
3000
0210
0000
1000
0000
0010
0000
0001
0000
,
0311
0000
1000
0000
0011
0000
1000
0000
0010
0000
0100
0000
0010
0000
0100
1000
,
0010
0000
0001
0000
0010
0100
0010
0000
0100
0000
0001
0000
0010
0000
1000
0000
,
0100
0010
0100
0001
0110
0002
0000
0103
,
0120
0000
0000
0000
2031
0000
0000
0000
0011
0000
0001
3200
0010
0000
0001
0000
,
0312
0000
1000
0000
2103
0000
0000
0000
3211
0000
0001
0000
0321
0000
1000
1000
,
1032
0100
1000
0100
1103
0000
0000
0000
1100
0000
0000
0000
1100
0000
0000
0000
,
1100
1001
0000
0000
1001
0000
1001
0000
,
1001
0110
0000
0110
0101
1010
1001
0110
,
0100
0110
0001
0001
1100
0001
1001
0000
,
1001
0110
0110
0110
,
0110
1001
0000
0000
1001
0000
1001
0000
,
1001
1100
0000
0000
1100
0000
0011
1100
,
0001
1100
0001
0001
1100
0001
0010
0000
,
0110
0000
0011
0000
0011
0000
0011
1001
,
1000
1001
1000
0000
0011
1000
0100
1000
,
1001
0000
1100
0000
0011
0000
1100
0011
,
1000
1001
0001
0000
1100
0001
0010
0001
,
1001
0000
1100
0000
1100
0000
0011
1001
,
1000
1001
0110
0000
0000
0000
2011
0101
,
0110
0000
3110
0100
0011
1000
0100
0010
,
1100
1000
0010
0010
1100
0010
0100
0100
,
0011
1000
0010
0100
0011
0001
0100
1000
,
0011
0100
0001
0001
1100
0010
0100
0100
,
0011
0000
0001
0000
1000
0100
0010
0000
1100
0100
0010
0000
1000
0100
0010
0000
,
1100
0100
0010
0000
0001
0010
0100
0000
0011
0010
0100
0000
0001
0010
0100
0000
,
0011
0010
0100
0000
1000
0100
0001
0000
1100
0100
0001
0000
1000
0100
0001
0000
,
1100
0100
0001
0000
0001
0010
1000
0000
0011
0010
1000
0000
0001
0010
1000
0000
,
0011
0010
1000
0000
0220
0000
0000
0000
0000
0000
0000
0000
0000
0000
0000
0000
,
0000
0000
0000
0000
,
0300
0000
0000
0000
,
0000
0000
0000
0000
0000
0000
0000
0030
,
0100
0000
0001
0000
0000
0010
0000
0000
0000
0000
1000
0000
0000
0000
0000
0000
,
0100
0000
0000
0000
0000
0001
0000
0000
0000
0000
0000
0000
0000
0000
1000
1000
,
0011
0000
0000
0000
;
